<?xml version="1.0" standalone="no"?>
<!DOCTYPE svg PUBLIC "-//W3C//DTD SVG 1.1//EN" "http://www.w3.org/Graphics/SVG/1.1/DTD/svg11.dtd" >
<svg xmlns="http://www.w3.org/2000/svg">
<metadata>Generated by IcoMoon</metadata>
<defs>
<font id="carlicons" horiz-adv-x="1024">
<font-face units-per-em="1024" ascent="960" descent="-64" />
<missing-glyph horiz-adv-x="1024" />
<glyph unicode="&#x20;" horiz-adv-x="512" d="" />
<glyph unicode="&#xe900;" glyph-name="article" horiz-adv-x="1286" d="M1039.631 610.124v349.876h-1039.631l2.181-392.86v-464.926c-0.001-0.154-0.001-0.337-0.001-0.519 0-85.75 65.184-156.275 148.704-164.728 5.661-0.578 11.419-0.875 17.247-0.875 0.124 0 0.249 0 0.373 0l936.012 0.636c4.816 0 9.633-0.636 14.449-0.636 91.756 0.103 166.11 74.458 166.214 166.204v507.83h-245.549zM168.304 22.515c-44.017 0-79.699 35.682-79.699 79.699v465.198l-1.636 306.255h866.238v-771.362c0-0.018 0-0.039 0-0.060 0-27.913 6.926-54.209 19.154-77.262zM1199.029 102.214c0 0 0 0 0 0 0-44.042-35.703-79.744-79.744-79.744s-79.744 35.703-79.744 79.744c0 0 0 0 0 0v421.668h159.489v-421.668zM831.159 711.27h-146.039c-18.344 0.97-32.851 16.080-32.851 34.579s14.507 33.609 32.765 34.575l146.125 0.004c18.344-0.97 32.851-16.080 32.851-34.579s-14.507-33.609-32.765-34.575zM831.159 557.507h-146.039c-18.344 0.97-32.851 16.080-32.851 34.579s14.507 33.609 32.765 34.575l146.125 0.004c18.344-0.97 32.851-16.080 32.851-34.579s-14.507-33.609-32.765-34.575zM831.159 403.834h-146.039c-0.53-0.029-1.15-0.045-1.773-0.045-19.122 0-34.624 15.502-34.624 34.624s15.502 34.624 34.624 34.624c0.624 0 1.244-0.016 1.859-0.049l145.953 0.004c18.344-0.97 32.851-16.080 32.851-34.579s-14.507-33.609-32.765-34.575zM831.159 250.161h-618.599c-0.53-0.029-1.15-0.045-1.773-0.045-19.122 0-34.624 15.502-34.624 34.624s15.502 34.624 34.624 34.624c0.624 0 1.244-0.016 1.859-0.049l618.513 0.004c18.344-0.97 32.851-16.080 32.851-34.579s-14.507-33.609-32.765-34.575zM831.159 96.488h-618.599c-0.53-0.029-1.15-0.045-1.773-0.045-19.122 0-34.624 15.502-34.624 34.624s15.502 34.624 34.624 34.624c0.624 0 1.244-0.016 1.859-0.049l618.513 0.004c0.53 0.029 1.15 0.045 1.773 0.045 19.122 0 34.624-15.502 34.624-34.624s-15.502-34.624-34.624-34.624c-0.624 0-1.244 0.016-1.859 0.049zM490.099 386.567h-243.913c-46.154 0.052-83.555 37.453-83.607 83.602v243.918c0.052 46.154 37.453 83.555 83.602 83.607h243.918c46.154-0.052 83.555-37.453 83.607-83.602v-243.918c-0.052-46.154-37.453-83.555-83.602-83.607zM246.185 728.264c-7.938-0.1-14.348-6.51-14.449-14.44v-243.65c0.050-7.978 6.478-14.438 14.44-14.54h243.923c7.938 0.1 14.348 6.51 14.449 14.44v244.014c-0.248 7.82-6.602 14.080-14.44 14.177h-243.923z" />
<glyph unicode="&#xe901;" glyph-name="info" horiz-adv-x="992" d="M495.931 703.982c-0.627 0.022-1.364 0.035-2.104 0.035-35.379 0-64.059-28.68-64.059-64.059s28.68-64.059 64.059-64.059c35.379 0 64.059 28.68 64.059 64.059 0 0.013 0 0.027 0 0.040 0.005 0.281 0.007 0.615 0.007 0.95 0 34.438-27.613 62.426-61.905 63.033zM495.931 511.95c-34.35-0.608-61.962-28.596-61.962-63.034 0-0.335 0.003-0.669 0.008-1.003l-0.001-191.909c-0.023-0.632-0.036-1.375-0.036-2.121 0-34.257 27.771-62.028 62.028-62.028s62.028 27.771 62.028 62.028c0 0.746-0.013 1.489-0.039 2.228l0.003 191.852c0.005 0.305 0.008 0.664 0.008 1.024 0 34.464-27.654 62.468-61.983 63.035zM495.931 959.927c-273.429 0.073-495.931-229.611-495.931-511.964s222.501-511.964 495.931-511.964 495.931 229.684 495.931 511.964-222.501 512.036-495.931 512.036zM495.931 31.907c-222.211 0-402.926 186.663-402.926 415.984s180.714 416.129 402.926 416.129 402.926-186.591 402.926-415.984-180.787-416.057-402.926-416.057z" />
<glyph unicode="&#xe902;" glyph-name="video" horiz-adv-x="1081" d="M1039.252 960h-41.561v-85.333h-124.683v85.333h-665.127v-85.333h-124.683v85.333h-41.637c-23.027-0.343-41.562-19.090-41.562-42.167 0-0.109 0-0.217 0.001-0.326v-938.803c-0.002-0.16-0.003-0.349-0.003-0.538 0-23.077 18.536-41.825 41.532-42.166h41.593v42.705h124.683v-42.705h665.203v42.705h124.759v-42.705h41.561c23.037 0.385 41.563 19.15 41.563 42.242 0 0.163-0.001 0.325-0.003 0.488v938.794c0.001 0.092 0.001 0.2 0.001 0.308 0 23.103-18.578 41.867-41.61 42.167zM208.033 106.667h-124.835v128.038h124.683v-128.038zM208.033 362.667h-124.835v127.809h124.683v-127.809zM208.033 618.667h-124.835v127.962h124.683v-127.962zM731.091 420.013l-270.337-161.821c-4.043-2.115-8.831-3.356-13.909-3.356-0.043 0-0.086 0-0.129 0-0.022 0-0.055 0-0.088 0-6.037 0-11.67 1.732-16.429 4.727-8.768 5.539-14.59 15.316-14.59 26.453 0 0.057 0 0.114 0 0.171v323.556c0 0.046 0 0.1 0 0.154 0 11.161 5.82 20.963 14.591 26.537 4.763 3.066 10.424 4.843 16.501 4.843 5.166 0 10.031-1.284 14.295-3.55l270.095-161.741c10.254-5.314 17.141-15.846 17.141-27.987s-6.886-22.673-16.966-27.904zM997.996 106.667h-124.988v128.038h124.759v-128.038zM997.996 362.667h-124.988v127.809h124.759v-127.809zM997.996 618.667h-124.988v127.962h124.759v-127.962z" />
<glyph unicode="&#xe903;" glyph-name="close-button" d="M511.943 960c-282.801 0-512.057-229.256-512.057-512.057s229.256-512.057 512.057-512.057c282.801 0 512.057 229.256 512.057 512.057 0 0.040 0 0.080 0 0.12v-0.006c0 282.738-229.205 511.943-511.943 511.943-0.040 0-0.080 0-0.121 0h0.007zM732.080 309.389l-81.583-81.469s-128.983 138.44-138.668 138.44-138.44-138.44-138.44-138.44l-81.583 81.469s138.554 127.16 138.554 137.87-138.554 139.238-138.554 139.238l81.583 81.583s130.008-138.44 138.44-138.44 138.668 138.44 138.668 138.44l81.583-81.583s-138.668-128.983-138.668-139.238 138.668-137.87 138.668-137.87z" />
<glyph unicode="&#xe904;" glyph-name="profil" horiz-adv-x="1075" d="M535.833 385.123c158.748 0 287.439 128.691 287.439 287.439s-128.691 287.439-287.439 287.439c-158.748 0-287.439-128.691-287.439-287.439v0c0-158.748 128.691-287.439 287.439-287.439v0zM535.833 884.787c117.010 0 211.866-94.856 211.866-211.866s-94.856-211.866-211.866-211.866c-116.884 0-211.661 94.651-211.866 211.488v0.019c0.068 117.104 94.81 212.057 211.827 212.465h0.039zM37.966-64h999.208c0.071 0 0.156-0.001 0.24-0.001 20.836 0 37.726 16.891 37.726 37.726 0 0.085 0 0.169-0.001 0.253v-0.013c-0.204 199.303-161.682 360.822-360.949 361.095h-353.096c-199.345-0.204-360.89-161.75-361.095-361.075v-0.020c0-0.071-0.001-0.156-0.001-0.24 0-20.836 16.891-37.726 37.726-37.726 0.085 0 0.169 0 0.253 0.001h-0.013zM361.334 259.368h352.831c0.020 0 0.043 0 0.067 0 144.117 0 263.232-107.043 282.177-245.96l0.165-1.477h-918.007c19.629 140.149 138.566 246.875 282.495 247.197h0.034z" />
<glyph unicode="&#xe905;" glyph-name="search" horiz-adv-x="1028" d="M1016.68-5.558l-306.492 306.612c58.461 68.792 94.123 158.546 94.444 256.621v0.069c-2.018 221.386-180.981 400.306-402.19 402.254l-0.186 0.001c-221.344-2.017-400.238-180.912-402.254-402.063l-0.001-0.192c1.95-221.395 180.871-400.358 402.064-402.374l0.192-0.001c96.345 0.292 184.602 34.685 253.389 91.735l-0.66-0.532 303.252-303.252c7.32-7.32 14.641-7.32 29.281-7.32s21.841 0 29.161 7.32c6.759 6.44 10.962 15.509 10.962 25.561s-4.203 19.121-10.948 25.547l-0.014 0.014zM402.256 227.971c-181.539 0.342-328.572 147.586-328.572 329.172 0 181.797 147.376 329.173 329.173 329.173 181.586 0 328.83-147.033 329.172-328.539v-0.033c0.004-0.608 0.006-1.327 0.006-2.046 0-181.002-146.731-327.733-327.733-327.733-0.72 0-1.439 0.002-2.157 0.007l0.111-0.001z" />
<glyph unicode="&#xe906;" glyph-name="control-s" horiz-adv-x="1696" d="M18.116 285.688c1.55 19.319 17.608 34.441 37.222 34.441 1.947 0 3.841-0.145 5.685-0.434l-0.207 0.022h108.289c3.934 0 5.583-1.856 4.953-5.369l-1.856-10.304c-0.298-3.055-2.863-5.43-5.953-5.43-0.298 0-0.603 0.022-0.88 0.084l0.036-0.022h-101.291c-0.664 0.084-1.429 0.145-2.192 0.145-9.494 0-17.332-7.141-18.432-16.324l-0.022-0.084-7.232-41.254c-0.054-0.572-0.084-1.214-0.084-1.856s0.022-1.306 0.084-1.947l-0.022 0.084c0-8.256 5.156-12.565 15.255-12.565h101.079c3.934 0 5.778-1.856 5.156-5.369l-1.856-10.304c-0.311-3.048-2.863-5.4-5.949-5.4-0.236 0-0.451 0.022-0.679 0.054l0.022-0.006h-107.893c-20.632 0-31.752 9.266-31.752 25.979-0.087 1.214-0.145 2.619-0.145 4.025s0.054 2.833 0.152 4.208l-0.022-0.191zM236.971 264.027c1.947 14.826 14.461 26.161 29.676 26.161 1.102 0 2.192-0.056 3.261-0.175l-0.145 0.022h63.742c14.858 0 24.329-8.256 24.329-20.632 0.113-0.756 0.145-1.611 0.145-2.476s-0.054-1.733-0.175-2.589l0.022 0.113-7.019-34.441c-1.611-14.797-14.032-26.222-29.126-26.222-1.306 0-2.567 0.084-3.811 0.249l0.145-0.022h-62.918c-15.255 0-24.542 8.256-24.542 20.632-0.084 0.756-0.145 1.611-0.145 2.476s0.054 1.733 0.145 2.589l-0.022-0.113zM333.101 259.48c0.054 0.389 0.084 0.817 0.084 1.244s-0.022 0.879-0.084 1.306l0.022-0.054c0 5.583-3.72 9.081-10.734 9.081h-48.254c-0.236 0.022-0.511 0.022-0.787 0.022-6.805 0-12.432-5.003-13.451-11.497l-0.022-0.084-4.331-25.154c-0.054-0.389-0.084-0.817-0.084-1.244s0.022-0.879 0.084-1.306l-0.022 0.054c0-5.583 3.72-8.883 10.518-8.883h48.468c0.358-0.054 0.787-0.054 1.184-0.054 6.714 0 12.229 4.911 13.238 11.313l0.022 0.084zM540.413 208.743c0-3.303-2.283-4.758-5.778-4.758h-13.208c-3.505 0-5.156 1.459-4.544 4.758l9.081 50.332v2.283c0 5.778-3.934 9.266-10.518 9.266h-45.779c-0.358 0.033-0.756 0.054-1.153 0.054-6.774 0-12.352-5.033-13.269-11.526l-0.022-0.084-8.883-50.741c0-3.303-2.283-4.758-5.981-4.758h-12.995c-3.505 0-5.156 1.459-4.544 4.758l10.518 55.696c1.825 14.826 14.324 26.193 29.491 26.193 1.244 0 2.467-0.084 3.658-0.236l-0.145 0.022h59.823c15.040 0 24.132-8.256 24.132-20.632 0.054-0.756 0.084-1.611 0.084-2.476s-0.022-1.733-0.084-2.589l0.022 0.113zM626.427 271.036c-3.505 0-5.156 1.459-4.544 4.758l1.856 9.48c0.207 2.681 2.436 4.789 5.156 4.789 0.236 0 0.451-0.022 0.664-0.054l-0.022 0.022h10.091l2.681 15.865c0 3.303 2.476 4.758 5.981 4.758h11.955c3.72 0 5.156-1.459 4.331-4.758l-2.681-15.865h47.856c3.72 0 4.953-1.459 4.331-4.758l-1.65-9.48c0-3.303-2.283-4.758-5.778-4.758h-46.421l-6.195-36.702c-0.054-0.389-0.084-0.817-0.084-1.244s0.022-0.879 0.084-1.306l-0.022 0.054c0-5.583 3.72-8.883 10.734-8.883h35.479c3.505 0 4.758-1.459 4.331-4.758l-1.65-9.48c-0.191-2.71-2.436-4.82-5.156-4.82-0.298 0-0.603 0.022-0.879 0.084l0.030-0.022h-44.126c-15.040 0-24.542 8.256-24.542 20.632-0.084 0.756-0.145 1.611-0.145 2.476s0.054 1.733 0.145 2.589l-0.022-0.113 7.232 41.254zM817.038 290.017h44.768c3.505 0 4.953-1.459 4.331-4.758l-1.65-9.48c0-3.303-2.283-4.758-5.778-4.758h-37.342c-0.358 0.033-0.756 0.054-1.153 0.054-6.774 0-12.352-5.033-13.269-11.526l-0.022-0.084-8.883-50.741c-0.191-2.71-2.436-4.82-5.156-4.82-0.298 0-0.603 0.022-0.879 0.084l0.030-0.022h-13.208c-3.303 0-4.953 1.459-4.331 4.758l9.48 55.28c1.825 14.826 14.324 26.193 29.491 26.193 1.244 0 2.467-0.084 3.658-0.236l-0.145 0.022zM931.921 264.027c1.733 14.797 14.185 26.193 29.308 26.193 1.244 0 2.436-0.084 3.628-0.236l-0.145 0.022h63.529c15.040 0 24.329-8.256 24.329-20.632 0.113-0.756 0.145-1.611 0.145-2.476s-0.054-1.733-0.175-2.589l0.022 0.113-5.778-34.040c-1.733-14.797-14.185-26.193-29.308-26.193-1.244 0-2.436 0.084-3.628 0.236l0.145-0.022h-64.966c-15.040 0-24.542 8.256-24.542 20.632-0.084 0.756-0.145 1.611-0.145 2.476s0.054 1.733 0.145 2.589l-0.022-0.113zM1028.051 259.48v2.476c0 5.583-3.72 9.081-10.518 9.081h-47.856c-0.298 0.022-0.634 0.054-0.975 0.054-6.805 0-12.444-5.003-13.451-11.497l-0.022-0.084-4.331-25.154c-0.054-0.389-0.084-0.817-0.084-1.244s0.022-0.879 0.084-1.306l-0.022 0.054c0-5.583 3.72-8.883 10.734-8.883h48.468c0.267-0.022 0.543-0.022 0.847-0.022 6.774 0 12.383 4.88 13.574 11.283l0.022 0.084zM1142.535 203.994c-14.644 0-22.281 6.195-22.281 17.944-0.084 0.847-0.145 1.807-0.145 2.804s0.054 1.947 0.145 2.925l-0.022-0.116 16.905 93.44c0.096 2.772 2.374 5.003 5.156 5.003 0.236 0 0.451-0.022 0.664-0.054l-0.022 0.006h12.383c3.72 0 4.953-1.65 4.544-4.953l-14.858-90.752c-0.054-0.329-0.084-0.664-0.084-1.031s0.022-0.725 0.084-1.077l-0.022 0.054c0-3.505 2.070-5.156 6.805-5.156h1.65c3.72 0 4.953-1.459 4.331-4.758l-1.65-9.48c0-3.303-2.283-4.758-5.778-4.758zM1228.546 261.758c0.298 2.71 2.589 4.789 5.339 4.789 0.236 0 0.451-0.022 0.695-0.054l-0.022 0.022h44.554c3.505 0 4.758-1.65 4.128-4.758l-1.65-10.518c-0.329-2.71-2.589-4.758-5.339-4.758-0.175 0-0.329 0.022-0.481 0.022l0.022-0.004h-44.768c-3.303 0-4.758 1.65-4.331 4.758zM1356.232 290.426c3.505 21.657 16.293 29.278 43.515 29.278h108.502c3.934 0 5.583-1.856 4.953-5.369l-1.65-10.304c-0.389-3.078-2.989-5.43-6.142-5.43-0.312 0-0.61 0.022-0.908 0.084l0.054-0.022h-104.989c-10.916 0-16.69-3.72-18.157-12.169v-2.070c-0.054-0.481-0.084-1-0.084-1.55s0.022-1.092 0.084-1.611l-0.022 0.084c0-6.408 4.758-9.266 14.216-9.266h75.291c20.632 0 34.228-5.981 34.228-22.482 0.094-1 0.145-2.138 0.145-3.303s-0.054-2.314-0.175-3.445l0.022 0.145-1.459-9.694c-3.72-21.657-16.507-29.278-43.729-29.278h-110.763c-3.934 0-5.583 1.856-4.953 5.369l1.856 10.304c0.311 3.048 2.863 5.4 5.949 5.4 0.236 0 0.451-0.022 0.679-0.054l-0.022 0.006h106.639c10.916 0 16.905 3.505 18.34 12.169v2.070c0.054 0.451 0.084 0.939 0.084 1.459s-0.022 1.017-0.084 1.52l0.022-0.065c0 6.606-4.544 9.48-14.032 9.48h-75.506c-20.632 0-34.441 5.981-34.441 22.281-0.084 1.031-0.145 2.222-0.145 3.413s0.054 2.387 0.145 3.567l-0.022-0.158zM412.723 692.256h-266.713c-0.022 0-0.059 0-0.099 0-32.762 0-62.826-11.518-86.382-30.714l0.267 0.207c-23.497-17.455-40.369-42.66-46.879-71.78l-10.885-57.327c-1.275-5.492-2.009-11.802-2.009-18.28 0-22.221 8.607-42.415 22.679-57.48l-0.054 0.054c18.035-19.501 43.747-31.661 72.298-31.661 1.558 0 3.108 0.054 4.667 0.113l-0.236-0.022h265.479c0.084-0.006 0.175-0.022 0.252-0.022 5.003 0 9.201 3.505 10.244 8.18l0.022 0.084 11.558 60.444c0.113 0.555 0.207 1.184 0.207 1.84 0 2.406-0.939 4.606-2.467 6.224l0.022-0.022c-2.009 2.161-4.855 3.505-8.027 3.505-0.084 0-0.175-0.003-0.236-0.006h-266.294c-0.481-0.054-1-0.054-1.55-0.054-6.102 0-11.558 2.65-15.347 6.867l-0.022 0.022c-2.925 3.261-4.697 7.6-4.697 12.343 0 1.642 0.207 3.2 0.603 4.697l-0.024-0.145 10.734 55.891c1.642 7.844 6.013 14.455 12.077 18.921l0.084 0.059c5.889 4.758 13.451 7.63 21.7 7.63 0.145 0 0.267-0.003 0.389-0.006h266.487c0.084-0.006 0.207-0.022 0.298-0.022 5.065 0 9.266 3.505 10.427 8.18l0.022 0.084 11.558 60.649c0.113 0.555 0.207 1.184 0.207 1.84 0 2.406-0.939 4.606-2.467 6.224l0.022-0.022c-1.978 2.1-4.758 3.445-7.844 3.505l-0.022 0.001zM786.704 692.256h-202.769c-0.022 0-0.059 0-0.099 0-32.762 0-62.826-11.518-86.382-30.714l0.267 0.207c-23.503-17.394-40.337-42.63-46.666-71.809l-0.145-0.817-10.734-55.891c-1.31-5.553-2.070-11.92-2.070-18.462 0-22.159 8.639-42.324 22.737-57.286l-0.054 0.054c18.096-19.828 44.061-32.211 72.909-32.211 1 0 1.978 0.022 2.956 0.054l-0.145-0.022h174.711c0.125-0.022 0.267-0.022 0.42-0.022 4.971 0 9.128 3.514 10.091 8.21l0.022 0.084 11.741 60.444c0.084 0.451 0.113 0.948 0.113 1.459 0 2.528-0.908 4.82-2.406 6.599l0.022-0.022c-2.038 2.161-4.918 3.505-8.119 3.505-0.054 0-0.113-0.001-0.145-0.003h-174.924c-0.481-0.054-1-0.054-1.55-0.054-6.102 0-11.558 2.65-15.347 6.867l-0.022 0.022c-2.925 3.261-4.697 7.6-4.697 12.343 0 1.642 0.207 3.2 0.603 4.697l-0.024-0.145 10.734 55.891c1.703 7.814 6.072 14.399 12.077 18.921l0.084 0.055c5.889 4.758 13.451 7.63 21.7 7.63 0.145 0 0.267-0.003 0.389-0.006h203.369c0.511 0.054 1.123 0.084 1.709 0.084 5.919 0 11.222-2.497 14.98-6.469l0.022-0.022c2.863-3.169 4.606-7.385 4.606-11.985 0-1.764-0.267-3.445-0.725-5.035l0.034 0.145-29.087-151.614c-0.084-0.451-0.113-0.948-0.113-1.459 0-2.528 0.908-4.82 2.406-6.599l-0.022 0.022c2.038-2.161 4.918-3.505 8.119-3.505 0.054 0 0.113 0.001 0.145 0.003h66.003c0.022 0 0.054-0.001 0.084-0.001 5.065 0 9.266 3.486 10.427 8.18l0.022 0.084 29.087 151.4c1.367 5.674 2.135 12.2 2.135 18.89 0 21.793-8.253 41.683-21.793 56.683l0.084-0.084c-17.973 19.615-43.699 31.87-72.306 31.87-1.55 0-3.108-0.054-4.635-0.113l0.236 0.022zM1306.107 692.256h-243.61c-32.791-0.022-62.888-11.526-86.473-30.714l0.267 0.207c-23.503-17.394-40.337-42.63-46.666-71.809l-0.145-0.817-29.087-151.614c-0.113-0.555-0.207-1.184-0.207-1.84 0-2.406 0.939-4.606 2.467-6.224l-0.022 0.022c2.038-2.161 4.918-3.505 8.119-3.505 0.054 0 0.113 0.001 0.145 0.003h66.003c0.084-0.022 0.207-0.022 0.298-0.022 4.942 0 9.073 3.413 10.213 7.983l0.022 0.084 29.087 151.003c1.52 7.875 5.949 14.521 12.077 18.921l0.089 0.065c5.925 4.88 13.591 7.844 21.945 7.844 0.113 0 0.236-0.001 0.358-0.004h243.389c0.084-0.006 0.175-0.022 0.252-0.022 5.003 0 9.201 3.505 10.244 8.18l0.022 0.084 11.741 60.649c0.084 0.451 0.113 0.939 0.113 1.459 0 2.559-1 4.88-2.589 6.593l0.022-0.022c-1.947 2.161-4.728 3.505-7.844 3.505-0.084 0-0.145-0.001-0.21-0.006h0.022zM1693.499 502.057c-2.009 2.161-4.855 3.505-8.027 3.505-0.084 0-0.175-0.003-0.236-0.006h-243.394c-0.511-0.054-1.123-0.084-1.733-0.084-6.010 0-11.405 2.562-15.162 6.655l-0.022 0.022c-2.956 3.274-4.758 7.63-4.758 12.383 0 1.686 0.236 3.322 0.647 4.88l-0.029-0.145 29.087 151.003c0.084 0.451 0.113 0.939 0.113 1.459 0 2.559-1 4.88-2.589 6.593l0.022-0.022c-1.947 2.345-4.82 3.841-8.027 3.934l-0.022 0.001h-65.79c-0.113 0.022-0.236 0.022-0.358 0.022-4.971 0-9.144-3.384-10.366-7.979l-0.022-0.084-29.087-151.614c-1.367-5.705-2.161-12.26-2.161-18.997 0-21.823 8.271-41.744 21.823-56.777l-0.084 0.084c18.065-19.5 43.807-31.661 72.389-31.661 1.527 0 3.048 0.054 4.575 0.113l-0.215-0.022h243.61c0.084-0.006 0.175-0.022 0.252-0.022 5.003 0 9.201 3.505 10.244 8.18l0.022 0.084 11.558 60.444c0.113 0.555 0.207 1.184 0.207 1.84 0 2.406-0.939 4.606-2.467 6.224l0.022-0.022z" />
<glyph unicode="&#xe9be;" glyph-name="action-dispo" d="M851.285 561.778c-7.151 12.583-20.463 20.933-35.726 20.935h-245.078l27.762 332.914c0.059 0.825 0.093 1.787 0.093 2.757 0 22.622-18.338 40.96-40.96 40.96-14.102 0-26.539-7.126-33.907-17.974l-0.092-0.143-346.112-534.414c-4.153-6.289-6.625-14.006-6.625-22.301 0-22.528 18.237-40.796 40.753-40.846h207.536l-28.103-364.658c-0.083-0.976-0.13-2.111-0.13-3.258 0-18.113 11.823-33.465 28.173-38.759l0.288-0.081c3.619-1.228 7.788-1.936 12.122-1.936 0.138 0 0.277 0.001 0.415 0.002h-0.021c14.653 0.089 27.481 7.816 34.715 19.396l0.101 0.173 384 565.817c3.795 6.084 6.045 13.471 6.045 21.384 0 7.361-1.947 14.267-5.354 20.231l0.105-0.2zM503.922 381.44c0.083 0.973 0.13 2.107 0.13 3.251 0 10.701-4.115 20.441-10.85 27.724l0.025-0.027c-7.558 7.928-18.201 12.857-29.994 12.857-0.055 0-0.11 0-0.165 0h-176.119l216.178 334.165-17.977-214.244c-0.091-1.022-0.142-2.212-0.142-3.413 0-22.622 18.338-40.96 40.96-40.96 0.010 0 0.020 0 0.030 0h216.176l-256.569-358.172z" />
<glyph unicode="&#xe9bf;" glyph-name="aide-circle" d="M449.029 280.8h89.257v-92.229h-89.257v92.229zM512 960c-282.77 0-512-229.23-512-512s229.23-512 512-512c282.77 0 512 229.23 512 512v0c-0.325 282.639-229.361 511.675-511.968 512h-0.032zM512 4.343c-245.025 0-443.657 198.632-443.657 443.657s198.632 443.657 443.657 443.657c245.025 0 443.657-198.632 443.657-443.657v0c-0.26-244.92-198.736-443.397-443.632-443.657h-0.025zM500.571 707.429c-50.4 0-90.857-16-120.114-47.543l-7.657-8.914c-22.542-29.67-36.112-67.229-36.112-107.958 0-2.225 0.041-4.441 0.121-6.647l-0.009 0.319v-11.429h81.714v11.429c-0.006 0.497-0.009 1.085-0.009 1.674 0 21.662 4.545 42.262 12.733 60.899l-0.381-0.972c12.229 23.543 34.286 35.086 66.857 35.086 26.286 0 45.029-6.629 55.657-19.771 10.545-12.915 16.934-29.583 16.934-47.744 0-0.612-0.007-1.223-0.022-1.832l0.002 0.090c-0.046-14.548-4.299-28.094-11.605-39.495l0.177 0.295c-4.966-8.43-10.764-15.682-17.442-22.016l-0.044-0.042-26.514-26.286c-21.731-19.484-39.365-43.042-51.785-69.532l-0.558-1.325c-7.749-21.992-12.226-47.35-12.226-73.755 0-2.518 0.041-5.026 0.121-7.524l-0.009 0.364v-11.429h82.171v11.429c-0.144 2.455-0.226 5.327-0.226 8.218 0 18.121 3.224 35.49 9.131 51.562l-0.333-1.037c10.458 19.030 23.455 35.234 38.788 48.868l0.183 0.16c21.895 20.010 41.552 41.733 59.019 65.184l0.866 1.216c10.389 16.882 16.543 37.335 16.543 59.225 0 1.559-0.031 3.11-0.093 4.654l0.007-0.221c0.035 1.165 0.055 2.535 0.055 3.91 0 39.435-16.548 75.005-43.079 100.145l-0.062 0.059c-27.938 25.327-65.189 40.829-106.061 40.829-2.37 0-4.728-0.052-7.072-0.155l0.334 0.012z" />
<glyph unicode="&#xe9c0;" glyph-name="alerte" d="M609.543-69.251h-196.004v205.85h196.004zM609.543 342.449h-196.004v617.551h196.004z" />
<glyph unicode="&#xe9c1;" glyph-name="alerte-sign" d="M1010.347 145.861l-419.84 698.909c-16.332 26.904-45.47 44.603-78.742 44.603s-62.41-17.699-78.512-44.196l-0.23-0.407-419.84-698.909c-8.32-13.6-13.247-30.059-13.247-47.67 0-50.886 41.135-92.164 91.967-92.394h839.702c50.854 0.231 91.989 41.509 91.989 92.395 0 17.61-4.927 34.070-13.477 48.076l0.23-0.406zM953.379 85.598c-4.432-7.715-12.624-12.827-22.010-12.829h-839.445c-13.848 0.167-25.010 11.432-25.010 25.304 0 4.876 1.379 9.43 3.768 13.293l-0.063-0.109 419.487 698.909c4.47 7.432 12.492 12.327 21.657 12.327s17.187-4.895 21.594-12.213l0.063-0.113 419.958-698.909c2.195-3.672 3.493-8.099 3.493-12.829s-1.298-9.158-3.557-12.945l0.064 0.116zM512.118 295.106c14.83 0 35.31 8.121 35.31 27.307 0 73.916 8.71 180.083 8.71 253.881 0 24.246-20.362 37.9-44.491 37.9s-45.197-13.653-45.197-37.9c0-73.799 8.71-179.965 8.71-253.881 0.471-19.185 17.184-27.307 36.958-27.307zM512.706 252.381c-26.392 0-47.787-21.395-47.787-47.787s21.395-47.787 47.787-47.787v0c26.392 0 47.787 21.395 47.787 47.787s-21.395 47.787-47.787 47.787v0z" />
<glyph unicode="&#xe9c2;" glyph-name="back" d="M1024 511.943h-780.766l358.354 358.468-89.589 89.589-512-512 512-512 89.589 89.361-358.354 358.582h780.766z" />
<glyph unicode="&#xe9c3;" glyph-name="back2" horiz-adv-x="485" d="M484.794 21.296l-128.669-85.296-356.125 512 356.125 512 128.669-85.296-286.885-422.467v-8.474z" />
<glyph unicode="&#xe9c4;" glyph-name="c6-achat" d="M306.385 142.429c-55.789-0.33-100.887-45.632-100.887-101.467 0-56.040 45.429-101.469 101.469-101.469s101.468 45.428 101.469 101.467v0c0.004 0.313 0.006 0.682 0.006 1.052 0 55.136-44.434 99.894-99.447 100.417h-0.050zM0 954.182v-101.469h102.051l185.018-387.258-69.818-120.669c-6.879-14.847-11.423-32.111-12.659-50.283l-0.025-0.451c-0.004-0.313-0.006-0.683-0.006-1.053 0-55.095 44.368-99.827 99.324-100.416h614.689v102.051h-592.756c-6.4 0-6.4 6.4-6.4 12.684v6.865l44.684 88.669h375.855c0.323-0.004 0.705-0.006 1.087-0.006 37.477 0 70.242 20.179 88.020 50.265l0.26 0.475 185.018 329.775c6.4 6.4 6.4 6.4 6.4 19.084 0.13 1.304 0.204 2.818 0.204 4.35 0 24.344-18.69 44.324-42.503 46.372l-0.173 0.012c-1.289 0.111-2.79 0.175-4.305 0.175s-3.016-0.063-4.499-0.188l0.194 0.013h-752.756l-51.084 101.004zM816.524 142.429c-55.487-0.722-100.189-45.871-100.189-101.461 0-56.040 45.429-101.469 101.469-101.469 56.037 0 101.465 45.425 101.469 101.461v0c0.004 0.313 0.006 0.682 0.006 1.052 0 55.136-44.434 99.894-99.447 100.417h-0.050z" />
<glyph unicode="&#xe9c5;" glyph-name="c6-analyse" d="M484.861 432.671l255.603-442.848c-66.456-33.746-144.906-53.515-227.973-53.515-282.958 0-512.341 229.383-512.341 512.341 0 271.759 211.585 494.099 479.006 511.274l1.504 0.077v-510.978c0.021-5.884 1.577-11.4 4.287-16.174l-0.086 0.164zM1023.432 480.816h-478.389v479.184c257.448-16.782 462.044-221.652 478.313-477.697l0.076-1.487zM608.745 545.086h341.447c-38.638 170.782-170.684 302.866-338.439 340.986l-3.008 0.575zM796.217 22.071c129.838 87.493 216.744 230.134 227.027 393.566l0.074 1.477h-455.565z" />
<glyph unicode="&#xe9c6;" glyph-name="c6-clients" d="M997.192 712.859c-162.344 0-253.814-38.199-263.709-42.456-6.896-3.084-12.129-8.843-14.444-15.922l-0.053-0.186c-0.657-2.125-1.036-4.568-1.036-7.099 0-0.012 0-0.024 0-0.036v0.002c-29.684 10.815-70.299 26.233-110.684 43.491-72.831 30.835-124.031 25.888-183.745-18.294h-160.273c0 4.142 0.92 8.169 1.266 11.506 0.070 0.699 0.11 1.511 0.11 2.333 0 7.455-3.282 14.143-8.48 18.698l-0.029 0.024c-36.473 33.827-171.434 44.757-227.696 47.978-0.462 0.028-1.003 0.043-1.548 0.043-7.054 0-13.492-2.634-18.386-6.972l0.029 0.025c-5.206-4.652-8.478-11.375-8.514-18.863v-360.707c0.321-14.367 12.043-25.89 26.457-25.89 0.124 0 0.247 0.001 0.37 0.003h126.543c0.096-0.001 0.209-0.002 0.322-0.002 11.546 0 21.387 7.299 25.161 17.535l0.060 0.186 1.956 5.983 9.435-9.32c18.754-18.639 38.199-37.969 51.43-48.439 78.698-62.591 173.39-130.244 192.374-142.094 22.317-13.484 48.905-22.214 77.359-24.133l0.534-0.029c1.299-0.072 2.818-0.112 4.348-0.112 16.508 0 31.905 4.756 44.896 12.973l-0.345-0.204c6.565-2.078 14.114-3.276 21.944-3.276 9.693 0 18.958 1.836 27.465 5.178l-0.51-0.177c19.129 7.242 34.66 20.357 44.766 37.113l0.221 0.396c3.653-0.518 7.873-0.814 12.161-0.814 14.633 0 28.461 3.445 40.718 9.567l-0.528-0.239c15.826 7.232 28.438 19.213 36.273 34.1l0.2 0.417c18.46 0.246 35.31 6.942 48.445 17.932l-0.121-0.099c15.98 12.473 26.158 31.736 26.158 53.377 0 3.209-0.224 6.365-0.657 9.455l0.041-0.356 23.932 15.187c1.266-4.142 2.416-7.709 3.337-10.815 3.453-11.017 13.57-18.872 25.521-18.872 0.129 0 0.257 0.001 0.386 0.003h126.543c0.11-0.002 0.24-0.003 0.37-0.003 14.211 0 25.806 11.202 26.436 25.258l0.002 0.057v360.701c-0.321 14.367-12.043 25.89-26.457 25.89-0.124 0-0.247-0.001-0.37-0.003h0.019zM209.172 673.625c-11.506-85.717-58.909-231.953-75.362-281.427h-80.539v307.2c68.228-5.408 130.129-15.533 155.901-25.773zM970.269 660.854v-308.811h-79.734c-21.285 65.007-75.362 212.279-108.038 280.737 55.989 16.732 120.46 26.908 187.131 28.065l0.641 0.009zM577.927 405.084c-4.989-4.524-8.176-10.959-8.398-18.14l-0.001-0.039c-0.003-0.141-0.004-0.307-0.004-0.474 0-7.035 2.91-13.391 7.592-17.929l0.006-0.006c14.267-14.152 85.142-84.221 117.357-112.755-2.929-3.977-6.816-7.087-11.327-9.021l-0.178-0.068c-4.281-2.551-9.44-4.059-14.951-4.059-4.157 0-8.114 0.858-11.703 2.406l0.192-0.074-0.69 1.726c-23.011 17.719-83.301 77.663-102.515 97.568-5.038 5.033-11.995 8.146-19.68 8.146-6.909 0-13.23-2.516-18.097-6.682l0.038 0.032c-5.38-4.628-8.767-11.444-8.767-19.051 0-7.116 2.963-13.539 7.723-18.104l0.009-0.008c14.497-14.842 62.706-63.741 94.116-90.894-3.983-6.693-9.977-11.832-17.139-14.646l-0.234-0.081c-2.128-0.976-4.616-1.546-7.238-1.546-4.679 0-8.935 1.814-12.102 4.776l0.010-0.009c-29.915 24.047-91.124 85.947-103.551 98.143-5.012 4.984-11.921 8.065-19.55 8.065-6.975 0-13.348-2.575-18.221-6.827l0.033 0.028c-5.070-4.451-8.338-10.849-8.628-18.014l-0.002-0.049c-0.013-0.301-0.021-0.654-0.021-1.010 0-6.9 2.825-13.14 7.381-17.626l0.003-0.003c11.506-11.506 47.288-47.863 78.238-76.512-16.585 2.744-31.446 8.217-44.808 15.984l0.626-0.336c-14.842 9.32-107.693 75.247-187.311 138.067-11.506 8.859-30.375 28.074-47.518 44.987-11.506 11.506-21.631 21.516-29.454 28.649 17.949 56.378 41.535 135.306 55.227 201.348h111.029c-25.658-27.959-59.599-78.123-49.474-118.853 5.313-19.693 20.483-34.901 39.757-40.177l0.397-0.093c10.957-3.86 23.591-6.090 36.747-6.090 37.587 0 70.921 18.205 91.667 46.279l0.219 0.311c11.561 1.957 21.916 5.28 31.558 9.859l-0.723-0.309c3.222 1.381 6.903 2.991 11.506 4.717 24.507-21.516 57.528-46.598 88.823-70.875 61.44-47.288 131.164-100.904 146.351-130.934 1.651-2.566 2.632-5.699 2.632-9.062 0-5.767-2.886-10.86-7.293-13.913l-0.056-0.037c-3.612-3.469-8.526-5.605-13.939-5.605-1.461 0-2.885 0.156-4.258 0.451l0.132-0.024c-14.152 10.7-73.981 68.458-123.57 117.587-4.985 4.928-11.842 7.972-19.409 7.972-7.156 0-13.676-2.722-18.581-7.187l0.022 0.020zM533.055 572.491c-3.221-0.041-6.302-0.586-9.185-1.557l0.211 0.062c-13.692-4.717-22.321-8.399-29.224-11.506h-1.151c-7.741-3.931-16.816-6.428-26.423-6.897l-0.155-0.006c-8.123-0.86-15.093-5.172-19.502-11.42l-0.057-0.086c-27.498-39.004-54.422-36.473-74.902-30.030-4.027 1.381-4.257 2.301-4.602 3.337-3.452 13.692 15.878 52.581 45.102 80.539 67.538 64.201 100.099 79.274 172.584 48.669 69.034-29.109 138.067-53.501 161.079-61.44 24.392-56.723 56.608-142.44 77.203-200.773l-30.145-19.675c-30.605 36.703-88.593 81.23-144.741 124.376-38.084 29.339-74.096 57.528-97.107 78.813-4.891 4.7-11.548 7.594-18.881 7.594-0.036 0-0.073 0-0.109 0h0.006z" />
<glyph unicode="&#xe9c7;" glyph-name="c6-compte" d="M851.301 960h-674.459c-24.546-1.358-44.003-21.335-44.526-45.972l-0.001-0.050v-933.681c0.466-24.711 19.956-44.721 44.41-46.018l0.117-0.005h670.432c24.571 1.301 44.060 21.312 44.526 45.977l0.001 0.045v933.681c0.043 0.722 0.067 1.566 0.067 2.415 0 23.036-17.816 41.912-40.421 43.599l-0.145 0.009zM802.747 26.664h-581.379v605.886h581.379zM802.747 728.507h-581.379v138.643h581.379zM289.251 444.203h94.461c12.817 0.506 23.016 11.019 23.016 23.914 0 0.168-0.002 0.336-0.005 0.503v-0.025 98.373c-1.628 13.292-12.267 23.655-25.549 24.844l-0.109 0.008h-92.045c-13.070-0.192-23.591-10.832-23.591-23.929 0-0.163 0.002-0.325 0.005-0.487v0.024-98.718c-0.004-0.171-0.007-0.373-0.007-0.576 0-13.179 10.653-23.87 23.818-23.931h0.006zM467.358 444.203h92.045c12.817 0.506 23.016 11.019 23.016 23.914 0 0.168-0.002 0.336-0.005 0.503v-0.025 98.373c0.007 0.211 0.010 0.459 0.010 0.708 0 12.897-10.202 23.411-22.976 23.913l-0.046 0.001h-92.045c-13.070-0.192-23.591-10.832-23.591-23.929 0-0.163 0.002-0.325 0.005-0.487v0.024-98.488c-0.004-0.172-0.007-0.375-0.007-0.578 0-13.098 10.523-23.739 23.576-23.929h0.018zM642.819 444.203h94.461c13.070 0.192 23.591 10.832 23.591 23.929 0 0.163-0.002 0.325-0.005 0.487v-0.024 98.373c-1.392 12.706-11.051 22.796-23.423 24.83l-0.163 0.022h-94.231c-12.817-0.506-23.016-11.019-23.016-23.914 0-0.168 0.002-0.336 0.005-0.503v0.025-98.718c-0.005-0.179-0.008-0.391-0.008-0.603 0-12.815 10.073-23.278 22.733-23.902l0.056-0.002zM289.251 255.971h94.461c12.805 0.444 23.016 10.931 23.016 23.803 0 0.167-0.002 0.333-0.005 0.498v-0.025 98.488c-1.737 13.366-12.663 23.699-26.155 24.503l-0.077 0.004h-92.045c-13.056-0.128-23.591-10.741-23.591-23.816 0-0.162 0.002-0.324 0.005-0.485v0.024-98.488c-0.007-0.208-0.010-0.452-0.010-0.698 0-13.154 10.663-23.817 23.817-23.817 0.206 0 0.411 0.003 0.616 0.008l-0.030-0.001zM467.358 255.971h92.045c12.805 0.444 23.016 10.931 23.016 23.803 0 0.167-0.002 0.333-0.005 0.498v-0.025 98.488c0.007 0.21 0.010 0.456 0.010 0.704 0 12.874-10.215 23.362-22.981 23.802l-0.040 0.001h-92.045c-13.056-0.128-23.591-10.741-23.591-23.816 0-0.162 0.002-0.324 0.005-0.485v0.024-98.488c-0.006-0.206-0.010-0.448-0.010-0.691 0-13.076 10.538-23.691 23.585-23.816h0.012zM289.251 64.863h94.461c12.829 0.569 23.014 11.107 23.014 24.025 0 0.129-0.001 0.258-0.003 0.387v-0.019 98.488c-1.83 13.097-12.402 23.236-25.551 24.384l-0.107 0.008h-92.045c-13.070-0.192-23.591-10.832-23.591-23.929 0-0.163 0.002-0.325 0.005-0.487v0.024-98.373c-0.004-0.171-0.007-0.373-0.007-0.576 0-13.179 10.653-23.87 23.818-23.931h0.006zM467.358 64.863h92.045c12.829 0.569 23.014 11.107 23.014 24.025 0 0.129-0.001 0.258-0.003 0.387v-0.019 98.488c0.007 0.21 0.010 0.456 0.010 0.704 0 12.874-10.215 23.362-22.981 23.802l-0.040 0.001h-92.045c-13.070-0.192-23.591-10.832-23.591-23.929 0-0.163 0.002-0.325 0.005-0.487v0.024-98.373c-0.006-0.206-0.010-0.449-0.010-0.693 0-13.099 10.524-23.74 23.579-23.929h0.018zM642.819 67.624h94.461c13.082 0.257 23.589 10.923 23.589 24.042 0 0.123-0.001 0.246-0.003 0.368v-0.019 286.72c-1.501 12.579-11.133 22.523-23.426 24.486l-0.16 0.021h-94.231c-12.805-0.444-23.016-10.931-23.016-23.803 0-0.167 0.002-0.333 0.005-0.498v0.025-286.72c-0.007-0.214-0.011-0.465-0.011-0.717 0-12.816 10.074-23.279 22.736-23.902l0.056-0.002z" />
<glyph unicode="&#xe9c8;" glyph-name="c6-equipement" d="M1010.421 405.037l-230.289 125.44v249.878c0.001 0.088 0.002 0.192 0.002 0.296 0 9.449-5.257 17.671-13.005 21.9l-0.13 0.065-242.866 132.007c-3.535 1.79-7.68 2.919-12.068 3.114l-0.064 0.002c-4.526-0.029-8.776-1.18-12.497-3.186l0.142 0.070-243.645-132.452c-7.938-4.248-13.247-12.482-13.247-21.957 0-0.107 0.001-0.213 0.002-0.32v0.016-249.433l-229.843-125.44c-7.766-4.467-12.911-12.717-12.911-22.17 0-0.032 0-0.064 0-0.096v0.005-265.238c0.319-7.084 3.561-13.352 8.54-17.671l0.031-0.026c1.315-1.151 2.771-2.216 4.314-3.15l0.138-0.077 242.977-132.341c1.569-0.879 3.386-1.605 5.301-2.082l0.153-0.032c1.39-0.385 3.054-0.699 4.759-0.879l0.139-0.012h8.348c2.241 0.581 4.204 1.381 6.025 2.402l-0.126-0.065 231.402 126.219 230.511-125.551c1.691-0.932 3.651-1.731 5.709-2.293l0.19-0.044 4.118-0.668h4.341c1.875 0.217 3.538 0.53 5.159 0.948l-0.262-0.057c2.032 0.533 3.808 1.256 5.461 2.175l-0.119-0.061 242.977 132.341c1.692 0.941 3.153 2.012 4.465 3.239l-0.013-0.012c4.975 4.153 8.217 10.236 8.568 17.083l0.002 0.058v266.351c-0.127 9.232-5.142 17.265-12.569 21.639l-0.119 0.065zM50.866 133.231v207.583l192.223-104.292v-208.028l-18.81 10.463c-0.573 0.34-1.236 0.642-1.932 0.87l-0.072 0.020zM458.908 383.221l-190.219-103.513-190.776 103.847 190.33 103.513zM486.177 340.703v-207.36l-192.111-104.626v207.805zM486.177 633.322v-207.583l-192.334 104.626v207.694zM702.108 780.355l-190.108-103.847-190.887 103.847 190.887 103.847zM564.424 383.221l190.442 103.847 190.33-103.513-190.553-103.847zM729.377 738.059v-207.583l-192.334-104.737v207.583zM729.377 236.188v-207.471l-192.111 104.626v207.36zM935.736 113.753v0c-0.363-0.14-0.664-0.37-0.887-0.663l-0.004-0.005-133.454-73.127c-0.84-0.335-1.536-0.671-2.206-1.049l0.091 0.047-18.81-10.463v208.028l192.223 104.626v-207.917z" />
<glyph unicode="&#xe9c9;" glyph-name="c6-ressources" d="M638.976 202.468l-103.538 82.148v122.425c0 12.568-10.188 22.756-22.756 22.756v0 0c-12.568 0-22.756-10.188-22.756-22.756v0-122.425l-103.083-82.148c-5.031-4.204-8.209-10.48-8.209-17.499 0-5.158 1.716-9.916 4.609-13.733l-0.041 0.057c4.169-5.045 10.409-8.251 17.399-8.306h0.009c0.046 0 0.101-0.001 0.156-0.001 5.281 0 10.141 1.799 14.002 4.817l-0.050-0.038 98.076 77.596 97.963-77.596c3.702-2.98 8.462-4.784 13.642-4.784 0.164 0 0.327 0.002 0.49 0.005h-0.024c12.568 0 22.756 10.188 22.756 22.756v0c-0.355 6.793-3.637 12.755-8.6 16.689l-0.047 0.036zM374.101 489.415h276.025c0 0 0 0 0.001 0 20.988 0 38.002 17.014 38.002 38.002 0 0.080 0 0.16-0.001 0.24v-0.012 56.889c0 0.044 0 0.096 0 0.149 0 46.578-30.063 86.135-71.844 100.325l-0.746 0.22-25.259 7.737c-3.379 1.098-7.267 1.731-11.303 1.731-5.899 0-11.482-1.352-16.456-3.763l0.225 0.098-50.745-24.235-50.745 24.121c-4.749 2.313-10.332 3.665-16.231 3.665-4.036 0-7.924-0.633-11.57-1.805l0.267 0.074-25.145-7.737c-42.517-14.443-72.569-53.999-72.59-100.577v-56.892c0-0.034 0-0.074 0-0.114 0-21.051 17.065-38.116 38.116-38.116 0 0 0 0 0 0v0zM512 721.067c0.034 0 0.073 0 0.113 0 66.105 0 119.694 53.589 119.694 119.694s-53.589 119.694-119.694 119.694c-66.105 0-119.694-53.589-119.694-119.694 0-0.12 0-0.24 0.001-0.36v0.019c0.194-65.919 53.644-119.289 119.574-119.353h0.006zM83.627-66.503h275.911c0.169-0.003 0.369-0.004 0.569-0.004 21.012 0 38.053 17.003 38.115 38v56.895c0 0.065 0 0.143 0 0.221 0 46.81-30.33 86.536-72.411 100.597l-0.748 0.217-25.259 7.737c-3.323 1.039-7.144 1.638-11.105 1.638-5.968 0-11.619-1.36-16.66-3.786l0.23 0.1-50.631-24.121-50.972 23.893c-4.81 2.327-10.461 3.686-16.43 3.686-3.961 0-7.782-0.599-11.377-1.711l0.272 0.073-25.031-7.509c-42.542-14.526-72.591-54.149-72.591-100.791 0-0.086 0-0.171 0-0.257v0.013-56.889c0.065-21.002 17.105-38.002 38.115-38.002 0 0 0 0 0 0v0zM221.639 164.807c0.101 0 0.221 0 0.341 0 66.042 0 119.58 53.538 119.58 119.58s-53.538 119.58-119.58 119.58c-66.042 0-119.58-53.538-119.58-119.58v0c0.064-65.897 53.369-119.322 119.214-119.58h0.025zM663.097-66.503h276.025c20.988 0 38.002 17.014 38.002 38.002v0 56.889c0 0.121 0.001 0.264 0.001 0.408 0 46.6-30.058 86.179-71.844 100.406l-0.747 0.221-25.259 7.737c-3.323 1.039-7.144 1.638-11.105 1.638-5.968 0-11.619-1.36-16.66-3.786l0.23 0.1-50.631-24.121-50.176 23.893c-4.806 2.331-10.454 3.694-16.42 3.694-3.964 0-7.788-0.602-11.385-1.719l0.272 0.073-25.714-7.509c-42.596-14.453-72.704-54.084-72.704-100.747 0-0.021 0-0.043 0-0.064v0.003-56.889c0-0.034 0-0.074 0-0.114 0-21.051 17.065-38.116 38.116-38.116 0 0 0 0 0 0v0zM801.109 164.807c65.993 0.065 119.467 53.578 119.467 119.58 0 66.042-53.538 119.58-119.58 119.58s-119.58-53.538-119.58-119.58v0c0.065-66.056 53.629-119.58 119.694-119.58 0 0 0 0 0 0v0z" />
<glyph unicode="&#xe9ca;" glyph-name="c6-stock" d="M995.869 223.073h-31.426v317.087c-0.264 17.023-14.126 30.722-31.187 30.722-0.125 0-0.251-0.001-0.376-0.002h-178.063v317.205c-0.198 17.010-14.033 30.722-31.071 30.722-0.125 0-0.25-0.001-0.374-0.002h-419.35c-0.106 0.001-0.23 0.002-0.355 0.002-17.038 0-30.873-13.712-31.071-30.703v-317.106h-178.435c-0.106 0.001-0.231 0.002-0.357 0.002-17.061 0-30.923-13.699-31.187-30.697v-316.994h-31.191c-0.071 0.001-0.154 0.001-0.237 0.001-17.102 0-30.99-13.765-31.189-30.82v-184.221c0.066-17.176 14.005-31.074 31.191-31.074 0.083 0 0.166 0 0.248 0.001h125.81c17.161 0 31.073 13.912 31.073 31.073v30.72h230.694v-30.72c0-0.002 0-0.005 0-0.008 0-17.161 13.912-31.073 31.073-31.073 0.248 0 0.496 0.003 0.743 0.009l-0.037-0.001h125.94c0.106-0.001 0.23-0.002 0.355-0.002 17.038 0 30.873 13.712 31.071 30.703v31.092h230.694v-30.72c0 0 0-0.001 0-0.001 0-17.161 13.912-31.073 31.073-31.073 0.083 0 0.165 0 0.248 0.001h125.692c0.106-0.001 0.23-0.002 0.355-0.002 17.038 0 30.873 13.712 31.071 30.703v184.574c-0.264 16.958-14.073 30.604-31.070 30.604-0.125 0-0.251-0.001-0.376-0.002h0.019zM901.709 509.558v-286.485h-356.517v286.485zM335.448 857.482h356.399v-286.485h-356.399zM125.823 509.558h356.752v-286.485h-356.752zM964.443 38.753h-62.852v30.955c-0.33 17.037-14.218 30.721-31.303 30.721-0.085 0-0.169 0-0.254-0.001h-293.298c-0.072 0.001-0.156 0.001-0.241 0.001-17.085 0-30.973-13.684-31.303-30.69v-30.751h-62.617v30.72c-0.265 17.023-14.126 30.721-31.187 30.721-0.084 0-0.168 0-0.252-0.001h-293.887c-0.071 0.001-0.155 0.001-0.239 0.001-17.061 0-30.923-13.698-31.187-30.696v-30.745h-62.97v122.762h901.591z" />
<glyph unicode="&#xe9cb;" glyph-name="c6-travaux" d="M983.040 61.023h-103.591l-127.524 469.611c0.025 0.25 0.040 0.54 0.040 0.833s-0.014 0.584-0.042 0.87l0.003-0.036-50.843 184.915-1.667 5.834-59.535 217.779c-3.062 10.907-12.766 18.83-24.371 19.169l-0.038 0.001h-203.967c-11.692-0.286-21.454-8.226-24.484-18.987l-0.044-0.184-102.4-376.618-8.454-31.434-128.714-471.754h-103.591c-14.35-0.068-25.957-11.716-25.957-26.076 0 0 0 0 0 0v0-71.442c0 0 0 0 0 0 0-14.36 11.607-26.008 25.951-26.076h939.228c14.402 0 26.076 11.675 26.076 26.076v0 0 71.442c0 0.035 0 0.077 0 0.119 0 14.402-11.675 26.076-26.076 26.076 0 0 0 0 0 0v0zM320.417 499.914h386.024l59.535-219.207h-505.094zM431.271 907.967h164.316l45.008-165.626h-254.333z" />
<glyph unicode="&#xe9cc;" glyph-name="carl" d="M122.995 710.903l256-67.308c28.494-9.411 50.982-30.208 62.451-56.864l0.254-0.664 44.297-126.562c8.859-24.967-4.947-39.694-30.49-32.561l-187.542 52.351c-29.917 10.142-54.694 28.897-72.071 53.289l-0.299 0.442-93.656 149.573c-14.037 22.091-4.602 34.977 21.055 28.304zM17.604 400.482c-24.392 10.47-23.011 24.392 2.416 30.95l148.768 37.508c12.789 2.761 27.481 4.343 42.543 4.343 17.986 0 35.445-2.255 52.11-6.498l-1.457 0.314 182.134-53.616c25.542-7.479 28.764-26.233 7.249-41.765l-99.178-71.45c-14.398-9.319-31.997-14.859-50.89-14.859-11.674 0-22.855 2.115-33.179 5.983l0.653-0.214zM1004.21 437.3l-181.674-85.027c-17.021-7.129-36.801-11.27-57.548-11.27-11.613 0-22.922 1.297-33.792 3.755l1.021-0.194-172.584 46.943c-25.542 7.133-30.030 26.923-9.78 44.067l107.808 92.045c16.719 12.823 37.934 20.549 60.953 20.549 7.882 0 15.552-0.906 22.912-2.619l-0.68 0.133 260.717-74.671c25.427-7.364 26.693-23.011 2.646-33.827zM607.036 198.558c-28.239 5.746-50.513 26.449-58.427 53.306l-0.137 0.54-22.321 96.762c-5.983 25.888 10.010 40.845 35.437 33.251l163.265-48.324c31.172-10.766 57.999-26.842 80.746-47.356l-0.206 0.183 108.613-106.197zM458.154 213.285c-15.763-14.612-35.322-13.001-43.261 3.567l-14.382 52.12c-8.629 27.729-2.991 48.784 21.055 63.971l50.164 33.827c15.878 14.727 32.216 12.196 36.243-5.408l12.196-52.696c5.638-43.376-10.815-51.66-33.827-72.716l-27.729-23.011z" />
<glyph unicode="&#xe9cd;" glyph-name="close" horiz-adv-x="1025" d="M1018.553 767.425c3.809 3.811 6.164 9.074 6.164 14.888s-2.356 11.077-6.164 14.888v0l-156.747 156.626c-3.83 3.816-9.114 6.175-14.948 6.175s-11.118-2.359-14.949-6.175l-304.657-304.415c-3.811-3.809-9.074-6.164-14.888-6.164s-11.077 2.356-14.888 6.164l-304.658 304.416c-3.83 3.816-9.114 6.175-14.948 6.175s-11.118-2.359-14.949-6.175l-156.746-156.625c-3.809-3.811-6.164-9.074-6.164-14.888s2.356-11.077 6.164-14.888v0l304.658-304.537c3.809-3.811 6.164-9.074 6.164-14.888s-2.356-11.077-6.164-14.888v0l-304.658-304.416c-3.816-3.83-6.175-9.114-6.175-14.948s2.359-11.118 6.175-14.949l-0.001 0.001 157.352-156.626c3.83-3.816 9.114-6.175 14.948-6.175s11.118 2.359 14.949 6.175l-0.001-0.001 304.053 304.416c3.811 3.809 9.074 6.164 14.888 6.164s11.077-2.356 14.888-6.164l304.658-304.416c3.83-3.816 9.114-6.175 14.948-6.175s11.118 2.359 14.949 6.175l157.352 156.625c3.816 3.83 6.175 9.114 6.175 14.948s-2.359 11.118-6.175 14.949l0.001-0.001-305.021 304.416c-3.809 3.811-6.164 9.074-6.164 14.888s2.356 11.077 6.164 14.888v0z" />
<glyph unicode="&#xe9ce;" glyph-name="down" d="M506.88 400.918h8.57l421.621 286.386 85.148-128.334-511.11-355.617-511.11 355.617 85.148 128.334z" />
<glyph unicode="&#xe9cf;" glyph-name="editer" d="M0 148.886v-212.886h212.886l605.986 606.284-212.886 212.438zM1007.142 729.51c10.449 10.244 16.926 24.505 16.926 40.28s-6.477 30.036-16.916 40.271l-133.081 133.081c-10.244 10.449-24.505 16.926-40.28 16.926s-30.036-6.477-40.271-16.916l-0.009-0.009-111.142-111.888 212.737-212.886z" />
<glyph unicode="&#xe9d0;" glyph-name="filtre" d="M391.94 478.72c10.034-10.921 16.184-25.548 16.184-41.612 0-0.345-0.003-0.689-0.008-1.032l0.001 0.052v-463.323c0.102-17.381 14.215-31.431 31.61-31.431 8.832 0 16.818 3.622 22.554 9.462l0.005 0.005 129.707 148.406c17.363 20.925 26.861 31.165 26.861 51.645v285.088c0.186 16.424 6.462 31.347 16.672 42.649l-0.050-0.057 372.35 402.18c7.783 8.39 12.558 19.665 12.558 32.056 0 26.064-21.129 47.193-47.193 47.193-0.032 0-0.064 0-0.097 0h-918.33c-0.031 0-0.067 0-0.103 0-26.064 0-47.193-21.129-47.193-47.193 0-12.32 4.72-23.537 12.451-31.941l-0.030 0.034z" />
<glyph unicode="&#xe9d1;" glyph-name="geoloc" horiz-adv-x="659" d="M329.453 960c-180.765 0-327.894-153.7-329.453-345.269 0-98.012 89.102-272.205 89.102-272.205l226.652-406.526 236.787 399.732s106.365 167.065 106.365 275.658c-1.782 191.903-148.020 347.273-329.453 348.61zM326 426.17c-103.246 1.002-187.782 89.77-188.784 199.699 0.891 109.929 84.869 198.808 189.341 199.81s187.893-88.433 188.004-198.808v-1.002c1.448-108.704-80.637-198.14-183.438-199.699z" />
<glyph unicode="&#xe9d2;" glyph-name="home" d="M407.299 25.053v299.146h203.764v-299.146h254.504v399.36h152.795l-509.124 449.294-509.239-449.294h152.795v-399.36z" />
<glyph unicode="&#xe9d3;" glyph-name="more" horiz-adv-x="255" d="M127.639 704.278c0.099 0 0.216 0 0.333 0 70.677 0 127.972 57.295 127.972 127.972s-57.295 127.972-127.972 127.972c-70.677 0-127.972-57.295-127.972-127.972 0-0.078 0-0.156 0-0.234v0.012c0-70.515 57.132-127.687 127.633-127.75h0.006zM127.639 576.195c-70.629-0.063-127.861-57.334-127.861-127.972 0-70.677 57.295-127.972 127.972-127.972 70.599 0 127.846 57.168 127.972 127.738v0.012c0 0.066 0 0.144 0 0.223 0 70.554-57.196 127.75-127.75 127.75-0.117 0-0.235 0-0.352 0h0.018zM127.639 192.278c-70.738 0-128.083-57.345-128.083-128.083s57.345-128.083 128.083-128.083c70.66 0 127.957 57.218 128.083 127.849v0.012c0 0.066 0 0.144 0 0.223 0 70.616-57.245 127.861-127.861 127.861-0.078 0-0.157 0-0.235 0h0.012z" />
<glyph unicode="&#xe9d4;" glyph-name="more2" d="M768.779 448.223c0-0.132-0.001-0.289-0.001-0.445 0-70.815 57.407-128.223 128.223-128.223s128.223 57.407 128.223 128.223c0 70.815-57.407 128.222-128.222 128.223v0c-0.066 0-0.144 0-0.223 0-70.614 0-127.873-57.181-128-127.766v-0.012zM640.668 448.223c-0.063 70.706-57.396 128-128.111 128-70.754 0-128.111-57.357-128.111-128.111s57.357-128.111 128.111-128.111v0c0.066 0 0.145 0 0.223 0 70.631 0 127.889 57.258 127.889 127.889 0 0.117 0 0.235 0 0.352v-0.018zM256 448.223c-0.064 70.706-57.397 128-128.111 128-70.754 0-128.111-57.357-128.111-128.111s57.357-128.111 128.111-128.111c0.078 0 0.157 0 0.235 0h-0.012c0 0 0 0 0 0 70.631 0 127.889 57.258 127.889 127.889 0 0.117 0 0.235 0 0.352v-0.018z" />
<glyph unicode="&#xe9d5;" glyph-name="next" d="M0 383.943h780.766l-358.354-358.582 89.589-89.589 512 512.228-512 512-89.589-89.589 358.354-358.468h-780.766z" />
<glyph unicode="&#xe9d6;" glyph-name="next2" horiz-adv-x="485" d="M286.885 443.763v8.474l-286.885 422.467 128.557 85.296 356.237-512-356.237-512-128.557 85.296z" />
<glyph unicode="&#xe9d7;" glyph-name="open-window" d="M683.228 663.481h-648.859c-19.009-0.127-34.37-15.566-34.37-34.593 0-0.079 0-0.158 0.001-0.237v0.012-657.844c0-0.067-0.001-0.146-0.001-0.225 0-19.027 15.361-34.466 34.358-34.593h648.871c19.009 0.127 34.37 15.566 34.37 34.593 0 0.079 0 0.158-0.001 0.237v-0.012 657.844c0 0.067 0.001 0.146 0.001 0.225 0 19.027-15.361 34.466-34.358 34.593h-0.012zM648.859 5.3h-580.121v429.615h580.121zM648.859 504.215h-580.121v89.629h580.121zM140.734 570.145h-51.554v-52.228h51.554zM218.009 570.145h-51.554v-52.228h51.554zM295.283 570.145h-51.554v-52.228h51.554zM989.518 960h-648.859c-19.009-0.127-34.37-15.566-34.37-34.593 0-0.079 0-0.158 0.001-0.237v0.012-235.867h68.738v42.119h580.233v-429.278h-200.487v-69.637h234.744c19.009 0.127 34.37 15.566 34.37 34.593 0 0.079 0 0.158-0.001 0.237v-0.012 657.844c0 0.067 0.001 0.146 0.001 0.225 0 19.027-15.361 34.466-34.358 34.593h-0.012zM954.7 801.071h-579.671v89.293h579.671zM447.024 866.664h-51.441v-52.677h51.441zM524.299 866.664h-51.554v-52.677h51.554zM601.686 866.664h-51.329v-52.677h51.554z" />
<glyph unicode="&#xe9d8;" glyph-name="pag-back" d="M231.024 466.357l414.72 493.643 144.484-83.668-350.658-424.585 350.658-425.834-144.484-86.166-414.72 493.893z" />
<glyph unicode="&#xe9d9;" glyph-name="pag-first" d="M0 464.303l410.813 488.96 142.956-82.863-347.082-420.514 347.082-421.592-142.956-85.558-410.813 489.095zM474.543 464.303l413.238 488.96 140.531-82.863-344.792-420.514 344.792-421.592-140.531-85.558-413.238 489.095z" />
<glyph unicode="&#xe9da;" glyph-name="pagination1" d="M752.185 181.76l-56.206 55.751 210.489 209.806-210.603 212.196 56.889 55.865 266.012-268.060zM322.788 237.511l-210.603 210.148 210.716 211.854-56.434 55.865-266.468-268.060 266.581-265.557zM549.092 447.659c0-0.068 0.001-0.147 0.001-0.227 0-21.993-17.829-39.822-39.822-39.822s-39.822 17.829-39.822 39.822c0 21.993 17.829 39.822 39.822 39.822 0.040 0 0.080 0 0.119 0h-0.006c0 0 0 0 0 0 21.89 0 39.644-17.713 39.708-39.589v-0.006zM708.38 447.659c0-0.068 0.001-0.147 0.001-0.227 0-21.993-17.829-39.822-39.822-39.822s-39.822 17.829-39.822 39.822c0 21.993 17.829 39.822 39.822 39.822 0.040 0 0.080 0 0.119 0h-0.006c21.767-0.192 39.353-17.819 39.481-39.582v-0.012zM390.372 447.659c0-0.068 0.001-0.148 0.001-0.228 0-21.993-17.829-39.822-39.822-39.822s-39.822 17.829-39.822 39.822c0 21.993 17.829 39.822 39.822 39.822v0c21.816-0.128 39.466-17.779 39.595-39.582v-0.012z" />
<glyph unicode="&#xe9db;" glyph-name="pag-last" d="M548.593 428.574l-409.299-484.292-139.294 84.48 341.534 417.732-341.534 416.376 139.294 82.071 409.299-484.292zM1018.579 428.574l-409.299-484.292-139.294 84.48 341.534 417.732-341.534 416.376 139.294 82.071 409.299-484.292z" />
<glyph unicode="&#xe9dc;" glyph-name="pag-next" d="M790.228 433.639l-414.845-493.768-144.359 86.166 350.533 425.834-350.533 424.46 144.359 83.668 414.845-493.643z" />
<glyph unicode="&#xe9dd;" glyph-name="plus" d="M583.566 960v-439.296h438.158v-139.833h-438.158v-439.296h-139.719v439.296h-438.158v139.833h438.158v439.296z" />
<glyph unicode="&#xe9de;" glyph-name="plus-circle" d="M512 960c-282.77 0-512-229.23-512-512s229.23-512 512-512c282.77 0 512 229.23 512 512v0c-0.882 282.415-229.585 511.118-511.915 512h-0.085zM767.556 396.778h-204.333v-204.778h-102.444v204.778h-205.222v102.444h205.222v205.222h102.444v-205.222h204.778z" />
<glyph unicode="&#xe9df;" glyph-name="plus-square" d="M0 954.435v-1014.873h1028.118v1014.873zM770.449 395.687h-205.134v-205.134h-102.511v205.134h-205.134v102.4h205.134v205.357h102.511v-205.357h205.134z" />
<glyph unicode="&#xe9e1;" glyph-name="supprimer" d="M851.486 704.843h-683.671c-12.724-0.722-22.769-11.217-22.769-24.058 0-0.013 0-0.026 0-0.038v0.002-645.843c-0.015-0.619-0.023-1.348-0.023-2.078 0-50.858 40.559-92.243 91.096-93.573l0.123-0.003h546.816c50.66 1.333 91.219 42.717 91.219 93.575 0 0.731-0.008 1.46-0.025 2.187l0.002-0.108v645.963c-0.046 12.805-10.074 23.253-22.705 23.971l-0.064 0.003zM433.694 120.681c0.007-0.218 0.011-0.473 0.011-0.73 0-12.7-10.13-23.034-22.75-23.363l-0.030-0.001h-45.538c-12.651 0.33-22.78 10.664-22.78 23.364 0 0.257 0.004 0.513 0.012 0.767l-0.001-0.037v430.562c-0.007 0.218-0.011 0.473-0.011 0.73 0 12.7 10.13 23.034 22.75 23.363l0.030 0.001h45.538c12.651-0.33 22.78-10.664 22.78-23.364 0-0.257-0.004-0.513-0.012-0.767l0.001 0.037zM676.804 120.681c0-0.009 0-0.020 0-0.030 0-12.883-10.111-23.405-22.831-24.062l-0.059-0.002h-45.538c-12.651 0.33-22.78 10.664-22.78 23.364 0 0.257 0.004 0.513 0.012 0.767l-0.001-0.037v430.562c-0.007 0.218-0.011 0.473-0.011 0.73 0 12.7 10.13 23.034 22.75 23.363l0.030 0.001h45.538c12.778-0.659 22.889-11.181 22.889-24.064 0-0.011 0-0.021 0-0.032v0.002zM889.434 896.151h-212.631l-17.95 37.346c-7.223 15.638-22.702 26.331-40.697 26.503h-216.869c-17.998-0.126-33.463-10.843-40.484-26.223l-0.115-0.28-18.071-37.346h-212.751c-25.285-0.598-45.554-21.237-45.554-46.61 0-0.428 0.006-0.855 0.017-1.28l-0.001 0.063v-55.778c0-0.011 0-0.024 0-0.036 0-12.841 10.045-23.335 22.705-24.055l0.064-0.003h805.105c12.724 0.722 22.769 11.217 22.769 24.058 0 0.013 0 0.026 0 0.038v-0.002 55.778c0.010 0.362 0.016 0.789 0.016 1.217 0 25.373-20.269 46.012-45.498 46.609l-0.055 0.001z" />
<glyph unicode="&#xe9e2;" glyph-name="up" d="M515.339 489.739h-8.459l-421.732-286.386-85.148 128.445 511.11 355.506 511.11-355.506-85.148-128.445z" />
<glyph unicode="&#xe9e3;" glyph-name="valider" d="M874.873 812.874c-0.121 0.001-0.263 0.001-0.406 0.001-17.118 0-32.723-6.479-44.496-17.119l0.058 0.051-435.847-406.657-194.089 182.672c-11.367 10.787-26.767 17.422-43.716 17.422-0.19 0-0.379-0.001-0.568-0.002h-1.972c-0.099 0.001-0.215 0.001-0.332 0.001-16.841 0-32.166-6.49-43.611-17.105l0.041 0.038-90.512-84.745c-11.896-9.766-19.426-24.472-19.426-40.937 0-0.256 0.002-0.512 0.005-0.768v0.039c-0.002-0.184-0.003-0.401-0.003-0.618 0-16.323 7.070-30.996 18.315-41.121l0.050-0.044 331.211-308.377c11.86-10.594 27.596-17.069 44.844-17.069s32.984 6.475 44.91 17.127l-0.066-0.058 90.394 84.392 480.691 447.853c11.301 10.404 18.357 25.27 18.357 41.784s-7.056 31.38-18.317 41.748l-0.040 0.036-90.63 84.509c-11.665 10.518-27.191 16.952-44.219 16.952-0.22 0-0.439-0.001-0.659-0.003h0.033z" />
</font>
</defs>
</svg>
